  0
SECTION
  2
HEADER
  9
$ACADVER
  1
AC1009
  9
$INSBASE
 10
0
 20
0
  9
$EXTMIN
 10
-45.73881458041436
 20
398.8304872807691
  9
$EXTMAX
 10
149.2611854195857
 20
537.0804872807692
  9
$LIMMIN
 10
-45.73881458041436
 20
398.8304872807691
  9
$LIMMAX
 10
149.2611854195857
 20
537.0804872807692
  9
$VIEWCTR
 10
10
 20
10
  9
$VIEWSIZE
 40
10
  9
$SNAPMODE
 70
0
  9
$SNAPUNIT
 10
1
 20
1
  9
$SNAPBASE
 10
0
 20
0
  9
$SNAPANG
 50
0
  9
$SNAPSTYLE
 70
0
  9
$SNAPISOPAIR
 70
0
  9
$GRIDMODE
 70
0
  9
$GRIDUNIT
 10
0
 20
0
  9
$ORTHOMODE
 70
0
  9
$REGENMODE
 70
1
  9
$FILLMODE
 70
1
  9
$QTEXTMODE
 70
0
  9
$DRAGMODE
 70
2
  9
$LTSCALE
 40
1
  9
$OSMODE
 70
0
  9
$ATTMODE
 70
1
  9
$TEXTSIZE
 40
3.5
  9
$TRACEWID
 40
0.5
  9
$TEXTSTYLE
  7
STANDARD
  9
$CLAYER
  8
0
  9
$CELTYPE
  6
BYLAYER
  9
$CECOLOR
 62
256
  9
$DIMSCALE
 40
1
  9
$DIMASZ
 40
0.18
  9
$DIMEXO
 40
0.0625
  9
$DIMDLI
 40
0.38
  9
$DIMRND
 40
0
  9
$DIMDLE
 40
0
  9
$DIMEXE
 40
0.18
  9
$DIMTP
 40
0
  9
$DIMTM
 40
0
  9
$DIMTXT
 40
0.18
  9
$DIMCEN
 40
0.09
  9
$DIMTSZ
 40
0
  9
$DIMTOL
 70
0
  9
$DIMLIM
 70
0
  9
$DIMTIH
 70
1
  9
$DIMTOH
 70
1
  9
$DIMSE1
 70
0
  9
$DIMSE2
 70
0
  9
$DIMTAD
 70
0
  9
$DIMZIN
 70
0
  9
$DIMBLK
  1

  9
$DIMASO
 70
1
  9
$DIMSHO
 70
1
  9
$DIMPOST
  1

  9
$DIMAPOST
  1

  9
$DIMALT
 70
0
  9
$DIMALTD
 70
2
  9
$DIMALTF
 40
25.4
  9
$DIMLFAC
 40
1
  9
$DIMTOFL
 70
0
  9
$DIMTVP
 40
0
  9
$DIMTIX
 70
0
  9
$DIMSOXD
 70
0
  9
$DIMSAH
 70
0
  9
$DIMBLK1
  1

  9
$DIMBLK2
  1

  9
$DIMSTYLE
  2
*UNNAMED
  9
$DIMCLRD
 70
0
  9
$DIMCLRE
 70
0
  9
$DIMCLRT
 70
0
  9
$DIMTFAC
 40
1
  9
$DIMGAP
 40
0.09
  9
$LUNITS
 70
2
  9
$LUPREC
 70
4
  9
$AXISMODE
 70
0
  9
$AXISUNIT
 10
0
 20
0
  9
$SKETCHINC
 40
0.1
  9
$FILLETRAD
 40
2
  9
$AUNITS
 70
0
  9
$AUPREC
 70
0
  9
$MENU
  1
ACAD
  9
$ELEVATION
 40
0
  9
$THICKNESS
 40
0
  9
$VIEWDIR
 10
0
 20
0
 30
1
  9
$LIMCHECK
 70
0
  9
$BLIPMODE
 70
1
  9
$CHAMFERA
 40
0
  9
$CHAMFERB
 40
0
  9
$FASTZOOM
 70
1
  9
$SKPOLY
 70
0
  9
$ANGBASE
 50
0
  9
$ANGDIR
 70
0
  9
$PDMODE
 70
0
  9
$PDSIZE
 40
0
  9
$PLINEWID
 40
0
  9
$COORDS
 70
2
  0
ENDSEC
  0
SECTION
  2
TABLES
  0
TABLE
  2
DIMSTYLE
 70
3
  0
DIMSTYLE
  2
DMST_1
 70
0
  3

  4

  5

  6

  7

 40
1
 41
1.75
 42
0
 43
7
 44
0.5
 45
0
 46
0
 47
0
 48
0
140
1.75
141
0
142
0
143
25.4
144
1
145
0
146
0.7
147
0.09
 71
1
 72
0
 73
0
 74
0
 75
0
 76
0
 77
1
 78
9
170
0
171
2
172
0
173
0
174
0
175
0
176
2
177
2
178
3
  0
DIMSTYLE
  2
DMST_2
 70
0
  3

  4

  5

  6

  7

 40
1
 41
1.75
 42
0
 43
7
 44
0.5
 45
0
 46
0
 47
0
 48
0
140
1.75
141
0
142
0
143
25.4
144
1
145
0
146
1
147
0.09
 71
0
 72
0
 73
0
 74
0
 75
0
 76
0
 77
1
 78
9
170
0
171
2
172
0
173
0
174
0
175
0
176
2
177
2
178
3
  0
DIMSTYLE
  2
DMST_3
 70
0
  3
x2,3
  4

  5

  6

  7

 40
1
 41
1.75
 42
0
 43
7
 44
0.5
 45
0
 46
0
 47
0
 48
0
140
1.75
141
0
142
0
143
25.4
144
1
145
0
146
1
147
0.09
 71
0
 72
0
 73
0
 74
0
 75
0
 76
0
 77
1
 78
9
170
0
171
2
172
0
173
0
174
0
175
0
176
2
177
2
178
3
  0
ENDTAB
  0
TABLE
  2
LTYPE
 70
9
  0
LTYPE
  2
CONTINUOUS
 70
64
  3
Solid line
 72
65
 73
0
 40
0
  0
LTYPE
  2
BORDER
 70
64
  3
__ __ . __ __ .
 72
65
 73
6
 40
8.980263157894738
 49
2.565789473684211
 49
-1.282894736842106
 49
2.565789473684211
 49
-1.282894736842106
 49
0
 49
-1.282894736842106
  0
LTYPE
  2
CENTER
 70
64
  3
____ _ ____ _
 72
65
 73
4
 40
10.26315789473684
 49
6.414473684210527
 49
-1.282894736842106
 49
1.282894736842106
 49
-1.282894736842106
  0
LTYPE
  2
DASHDOT
 70
64
  3
__ . __ . __ .
 72
65
 73
4
 40
5.131578947368422
 49
2.565789473684211
 49
-1.282894736842106
 49
0
 49
-1.282894736842106
  0
LTYPE
  2
DASHED
 70
64
  3
__ __ __ __ __
 72
65
 73
2
 40
3.848684210526317
 49
2.565789473684211
 49
-1.282894736842106
  0
LTYPE
  2
DIVIDE
 70
64
  3
__ . . __ . . 
 72
65
 73
6
 40
6.414473684210527
 49
2.565789473684211
 49
-1.282894736842106
 49
0
 49
-1.282894736842106
 49
0
 49
-1.282894736842106
  0
LTYPE
  2
DOT
 70
64
  3
..............
 72
65
 73
4
 40
2.565789473684211
 49
0
 49
-1.282894736842106
 49
0
 49
-1.282894736842106
  0
LTYPE
  2
HIDDEN
 70
64
  3
_ _ _ _ _ _ _
 72
65
 73
2
 40
1.924342105263158
 49
1.282894736842106
 49
-0.6414473684210528
  0
LTYPE
  2
PHANTOM
 70
64
  3
_____ _ _ _____ _ _ 
 72
65
 73
6
 40
12.82894736842106
 49
6.414473684210527
 49
-1.282894736842106
 49
1.282894736842106
 49
-1.282894736842106
 49
1.282894736842106
 49
-1.282894736842106
  0
ENDTAB
  0
TABLE
  2
LAYER
 70
3
  0
LAYER
  2
1
 70
0
 62
7
  6
CONTINUOUS
  0
LAYER
  2
0
 70
0
 62
7
  6
CONTINUOUS
  0
ENDTAB
  0
TABLE
  2
STYLE
 70
4
  0
STYLE
  2
STANDARD
 70
0
 40
0
 41
1
 50
0
 71
0
 42
3.5
  3
txt
  4

  0
STYLE
  2
SIMPLEX
 70
0
 40
0
 41
1
 50
0
 71
0
 42
3.5
  3
simplex
  4

  0
STYLE
  2
COMPLEX
 70
0
 40
0
 41
1
 50
0
 71
0
 42
3.5
  3
complex
  4

  0
STYLE
  2
ITALIC
 70
0
 40
0
 41
1
 50
0
 71
0
 42
3.5
  3
italic
  4

  0
ENDTAB
  0
TABLE
  2
VIEW
 70
0
  0
ENDTAB
  0
ENDSEC
  0
SECTION
  2
BLOCKS
  0
BLOCK
  8
0
  2
A3SN_
 70
0
 10
119.6370511398703
 20
937.9051671960629
 30
0
  0
LINE
  8
1
 62
4
 10
314.6370511398703
 20
790.1551671960629
 30
0
 11
134.6370511398703
 21
790.1551671960629
 31
0
  0
LINE
  8
1
 62
2
  6
DASHDOT
 10
311.379994238406
 20
805.1551671960629
 30
0
 11
303.6036442856122
 21
805.1551671960629
 31
0
  0
LINE
  8
1
 62
2
  6
DASHDOT
 10
307.4918192620091
 20
809.0433421724596
 30
0
 11
307.4918192620091
 21
801.2669922196369
 31
0
  0
LINE
  8
1
 62
2
  6
DASHDOT
 10
301.379994238406
 20
805.1551671960629
 30
0
 11
290.379994238406
 21
805.1551671960629
 31
0
  0
LINE
  8
1
 62
4
 10
134.6370511398703
 20
817.1551671960629
 30
0
 11
134.6370511398703
 21
786.1551671960629
 31
0
  0
LINE
  8
1
 62
4
 10
314.6370511398703
 20
1062.655167196063
 30
0
 11
-75.36294886012978
 21
1062.655167196063
 31
0
  0
LINE
  8
1
 62
4
 10
314.6370511398703
 20
786.1551671960629
 30
0
 11
-65.36294886012978
 21
786.1551671960629
 31
0
  0
LINE
  8
1
 62
4
 10
189.6370511398703
 20
810.1551671960629
 30
0
 11
189.6370511398703
 21
790.1551671960629
 31
0
  0
LINE
  8
1
 62
4
 10
314.6370511398703
 20
810.1551671960629
 30
0
 11
134.6370511398703
 21
810.1551671960629
 31
0
  0
LINE
  8
1
 62
4
 10
259.6370511398703
 20
800.1551671960629
 30
0
 11
314.6370511398703
 21
800.1551671960629
 31
0
  0
LINE
  8
1
 62
4
 10
259.6370511398703
 20
790.1551671960629
 30
0
 11
259.6370511398703
 21
810.1551671960629
 31
0
  0
LINE
  8
1
 62
4
 10
314.6370511398703
 20
786.1551671960629
 30
0
 11
314.6370511398703
 21
1062.655167196063
 31
0
  0
LINE
  8
1
 62
2
 10
287.1370511398703
 20
817.1551671960629
 30
0
 11
287.1370511398703
 21
800.1551671960629
 31
0
  0
LINE
  8
1
 62
4
 10
134.6370511398703
 20
817.1551671960629
 30
0
 11
314.6370511398703
 21
817.1551671960629
 31
0
  0
LINE
  8
1
 62
7
 10
168.6370511398703
 20
817.1551671960629
 30
0
 11
168.6370511398703
 21
810.1551671960629
 31
0
  0
LINE
  8
1
 62
7
 10
202.6370511398703
 20
817.1551671960629
 30
0
 11
202.6370511398703
 21
810.1551671960629
 31
0
  0
LINE
  8
1
 62
7
 10
236.6370511398703
 20
817.1551671960629
 30
0
 11
236.6370511398703
 21
810.1551671960629
 31
0
  0
LINE
  8
1
 62
4
 10
-75.36294886012978
 20
1062.655167196063
 30
0
 11
-75.36294886012978
 21
841.1551671960629
 31
0
  0
LINE
  8
1
 62
4
 10
-65.36294886012978
 20
841.1551671960629
 30
0
 11
-65.36294886012978
 21
786.1551671960629
 31
0
  0
LINE
  8
1
 62
4
 10
-75.36294886012978
 20
841.1551671960629
 30
0
 11
-65.36294886012978
 21
841.1551671960629
 31
0
  0
LINE
  8
1
 62
7
 10
290.879994238406
 20
806.7287169680644
 30
0
 11
290.879994238406
 21
803.5816174240613
 31
0
  0
LINE
  8
1
 62
7
 10
300.879994238406
 20
808.5433421724596
 30
0
 11
290.879994238406
 21
806.7287169680644
 31
0
  0
LINE
  8
1
 62
7
 10
290.879994238406
 20
803.5816174240613
 30
0
 11
300.879994238406
 21
801.7669922196369
 31
0
  0
LINE
  8
1
 62
7
 10
300.879994238406
 20
801.7669922196369
 30
0
 11
300.879994238406
 21
808.5433421724596
 31
0
  0
CIRCLE
  8
1
 62
7
 10
307.4918192620091
 20
805.1551671960629
 30
0
 40
3.388174976396954
  0
CIRCLE
  8
1
 62
7
 10
307.4918192620091
 20
805.1551671960629
 30
0
 40
1.573549771972637
  0
TEXT
  8
1
 62
2
 10
133.5370511398703
 20
788.1551671960629
 30
0
 40
1.8
  1
F.05.003.17.01 - 25.02.93
 50
90
 41
0.54
 73
2
 11
132.6370511398703
 21
788.1551671960629
 31
0
  0
TEXT
  8
1
 62
2
 10
118.2030511398703
 20
787.2551671960629
 30
0
 40
1.8
  1
Ce plan reste notre propriÅtÅ. Il ne peut, sans notre autorisation Åcrite Átre copiÅ, reproduit, communiquÅ È des tiers ou mis È leur disposition.
 41
0.8100000000000001
 72
1
 73
2
 11
224.6370511398703
 21
788.1551671960629
 31
0
  0
TEXT
  8
1
 62
4
 10
142.6970511398703
 20
801.1551671960629
 30
0
 40
6
  1
Portescap
 41
0.72
 72
1
 11
162.1370511398703
 21
801.1551671960629
 31
0
  0
TEXT
  8
1
 62
3
 10
143.7770511398703
 20
794.1551671960629
 30
0
 40
3
  1
La Chaux-de-Fonds
 41
0.72
 72
1
 11
162.1370511398703
 21
794.1551671960629
 31
0
  0
TEXT
  8
1
 62
4
 10
202.6995511398703
 20
801.4051671960629
 30
0
 40
5
  1
26BC 6A .101
 41
0.5850000000000001
  0
TEXT
  8
1
 62
4
 10
202.6995511398703
 20
793.9051671960629
 30
0
 40
5
  1
Outline drawing
 41
0.5850000000000001
  0
TEXT
  8
1
 62
4
 10
261.9370511398703
 20
792.6551671960629
 30
0
 40
5
  1
3011.26.S25_6A
 41
0.7200000000000001
 72
1
 73
2
 11
287.1370511398703
 21
795.1551671960629
 31
0
  0
TEXT
  8
1
 62
2
 10
204.6370511398703
 20
812.6551671960629
 30
0
 40
2
  1
ContrÂlÅ :
 41
0.5850000000000001
 73
2
 11
204.6370511398703
 21
813.6551671960629
 31
0
  0
TEXT
  8
1
 62
2
 10
170.6370511398703
 20
812.6551671960629
 30
0
 40
2
  1
Conforme :
 41
0.5850000000000001
 73
2
 11
170.6370511398703
 21
813.6551671960629
 31
0
  0
TEXT
  8
1
 62
2
 10
136.6370511398703
 20
812.6551671960629
 30
0
 40
2
  1
DessinÅ :
 41
0.5850000000000001
 73
2
 11
136.6370511398703
 21
813.6551671960629
 31
0
  0
TEXT
  8
1
 62
2
 10
147.2068104325729
 20
812.4051671960629
 30
0
 40
2.5
  1
16.05.06 SvK
 41
0.7200000000000001
 73
2
 11
147.2068104325729
 21
813.6551671960629
 31
0
  0
TEXT
  8
1
 62
4
 10
-72.86294886012978
 20
838.8551671960629
 30
0
 40
5
  1
3011.26.S25_6A
 50
270
 41
0.7200000000000001
 72
1
 73
2
 11
-70.36294886012978
 21
813.6551671960629
 31
0
  0
TEXT
  8
1
 62
3
 10
236.5745511398703
 20
812.1551671960629
 30
0
 40
3
  1
Cotes et tolÅrances en mm
 41
0.675
 72
1
 73
2
 11
261.8870511398703
 21
813.6551671960629
 31
0
  0
TEXT
  8
1
 62
3
 10
263.3070511398703
 20
803.4051671960629
 30
0
 40
3.5
  1
Ech. 2:1
 41
0.72
 72
1
 73
2
 11
273.3870511398703
 21
805.1551671960629
 31
0
  0
TEXT
  8
1
 62
2
 10
289.1370511398703
 20
812.6551671960629
 30
0
 40
2
  1
Edition:
 41
0.5850000000000001
 73
2
 11
289.1370511398703
 21
813.6551671960629
 31
0
  0
TEXT
  8
1
 62
3
 10
299.7068104325729
 20
812.4051671960629
 30
0
 40
2.5
  1
01
 41
0.7200000000000001
 73
2
 11
299.7068104325729
 21
813.6551671960629
 31
0
  0
ENDBLK
  8
0
  0
BLOCK
  8
0
  2
22C14TACHO
 70
0
 10
1.67823970790743
 20
449.0716719768245
 30
0
  0
INSERT
  8
0
  2
A3SN_
 10
51.76118541958567
 20
474.7054872807691
 30
0
 41
0.5
 42
0.5
 43
0.5
  0
ENDBLK
  8
0
  0
BLOCK
  8
0
  2
RED_K24
 70
0
 10
-68.84294707174084
 20
360.016527351639
 30
0
  0
INSERT
  8
0
  2
22C14TACHO
 10
1.67823970790743
 20
449.0716719768245
 30
0
  0
ENDBLK
  8
0
  0
BLOCK
  8
0
  2
ARBRE_DE_SORTIE__1
 70
0
 10
1.424687559253471
 20
190.539827307549
 30
0
  0
INSERT
  8
0
  2
RED_K24
 10
-68.84294707174084
 20
360.016527351639
 30
0
  0
ENDBLK
  8
0
  0
BLOCK
  8
1
  2
*X0
 70
1
 10
0
 20
0
 30
0
  0
LINE
  8
1
 62
2
 10
7.11468397640544
 20
449.7635289991842
 30
0
 11
7.663679284053927
 21
450.3125243068326
 31
0
  0
LINE
  8
1
 62
2
 10
7.11420276655366
 20
448.3488342269593
 30
0
 11
7.663679284053927
 21
448.8983107444595
 31
0
  0
ENDBLK
  8
0
  0
BLOCK
  8
1
  2
*X1
 70
1
 10
0
 20
0
 30
0
  0
LINE
  8
1
 62
2
 10
13.23996603414196
 20
450.2319568074283
 30
0
 11
13.78861538197129
 21
450.7806061552576
 31
0
  0
LINE
  8
1
 62
2
 10
13.23996603414196
 20
448.8177432450552
 30
0
 11
13.78909626456635
 21
449.3668734754796
 31
0
  0
ENDBLK
  8
0
  0
BLOCK
  8
1
  2
*X2
 70
1
 10
0
 20
0
 30
0
  0
LINE
  8
1
 62
2
 10
8.37963320388601
 20
449.6142646642916
 30
0
 11
8.92867928394827
 21
450.1633107443539
 31
0
  0
LINE
  8
1
 62
2
 10
8.379151994034231
 20
448.1995698920667
 30
0
 11
8.92867928394827
 21
448.7490971819808
 31
0
  0
ENDBLK
  8
0
  0
BLOCK
  8
1
  2
*X3
 70
1
 10
0
 20
0
 30
0
  0
LINE
  8
1
 62
2
 10
9.630572659097084
 20
450.8652041195027
 30
0
 11
9.644679503275853
 21
450.8793109636814
 31
0
  0
LINE
  8
1
 62
2
 10
9.630572659097084
 20
449.4509905571296
 30
0
 11
10.17807265909767
 21
449.9984905571302
 31
0
  0
LINE
  8
1
 62
2
 10
9.630572659097084
 20
448.0367769947565
 30
0
 11
10.17807265909767
 21
448.5842769947571
 31
0
  0
ENDBLK
  8
0
  0
BLOCK
  8
1
  2
*X4
 70
1
 10
0
 20
0
 30
0
  0
LINE
  8
1
 62
2
 10
11.97496603424759
 20
450.3811703699071
 30
0
 11
12.47310662802198
 21
450.8793109636814
 31
0
  0
LINE
  8
1
 62
2
 10
11.97496603424759
 20
448.966956807534
 30
0
 11
12.5240455267869
 21
449.5160363000733
 31
0
  0
LINE
  8
1
 62
2
 10
12.45717165875223
 20
448.0349488696655
 30
0
 11
12.52452640938196
 21
448.1023036202952
 31
0
  0
ENDBLK
  8
0
  0
BLOCK
  8
1
  2
*X5
 70
1
 10
0
 20
0
 30
0
  0
LINE
  8
1
 62
2
 10
10.72557265909825
 20
450.5459905571308
 30
0
 11
11.05889306564893
 21
450.8793109636814
 31
0
  0
LINE
  8
1
 62
2
 10
10.72557265909825
 20
449.1317769947577
 30
0
 11
11.27307265909883
 21
449.6792769947583
 31
0
  0
LINE
  8
1
 62
2
 10
11.04295809637921
 20
448.0349488696655
 30
0
 11
11.27307265909883
 21
448.2650634323852
 31
0
  0
ENDBLK
  8
0
  0
BLOCK
  8
1
  2
*D0
 70
1
 10
0
 20
0
 30
0
  0
LINE
  8
1
 62
2
 10
2.487322036294319
 20
448.0349488696655
 30
0
 11
2.487322036294319
 21
468.2354872807786
 31
0
  0
LINE
  8
1
 62
2
 10
7.663679284053904
 20
448.0349488696655
 30
0
 11
1.987322036294319
 21
448.0349488696655
 31
0
  0
LINE
  8
1
 62
2
 10
10.45182265909792
 20
468.2354872807786
 30
0
 11
1.987322036294319
 21
468.2354872807786
 31
0
  0
SOLID
  8
1
 62
2
 10
2.487322036294319
 20
468.2354872807786
 30
0
 11
2.714822036294319
 21
466.4854872807786
 31
0
 12
2.259822036294319
 22
466.4854872807786
 32
0
 13
2.259822036294319
 23
466.4854872807786
 33
0
  0
SOLID
  8
1
 62
2
 10
2.487322036294319
 20
448.0349488696655
 30
0
 11
2.259822036294319
 21
449.7849488696655
 31
0
 12
2.714822036294319
 22
449.7849488696655
 32
0
 13
2.714822036294319
 23
449.7849488696655
 33
0
  0
TEXT
  8
1
 62
3
 10
1.487322036294319
 20
456.446175719913
 30
0
 40
1.75
  1
210
 50
90
 41
0.7200000000000001
  0
TEXT
  8
1
 62
3
 10
1.224822036294319
 20
460.261175719913
 30
0
 40
1.225
  1
%%p20
 50
90
 41
0.7200000000000001
  0
ENDBLK
  8
0
  0
BLOCK
  8
1
  2
*D1
 70
1
 10
0
 20
0
 30
0
  0
LINE
  8
1
 62
2
 10
51.60554655919806
 20
459.591237204734
 30
0
 11
55.10554655919806
 21
459.591237204734
 31
0
  0
LINE
  8
1
 62
2
 10
55.10554655919806
 20
459.591237204734
 30
0
 11
58.41009906029468
 21
459.591237204734
 31
0
  0
LINE
  8
1
 62
2
 10
58.41009906029468
 20
459.591237204734
 30
0
 11
62.22355653654336
 21
459.591237204734
 31
0
  0
LINE
  8
1
 62
2
 10
55.10554655919806
 20
468.2354872807787
 30
0
 11
55.10554655919806
 21
459.091237204734
 31
0
  0
LINE
  8
1
 62
2
 10
58.41009906029468
 20
468.2354872807787
 30
0
 11
58.41009906029468
 21
459.091237204734
 31
0
  0
SOLID
  8
1
 62
2
 10
55.10554655919806
 20
459.591237204734
 30
0
 11
53.35554655919806
 21
459.363737204734
 31
0
 12
53.35554655919806
 22
459.818737204734
 32
0
 13
53.35554655919806
 23
459.818737204734
 33
0
  0
SOLID
  8
1
 62
2
 10
58.41009906029468
 20
459.591237204734
 30
0
 11
60.16009906029468
 21
459.818737204734
 31
0
 12
60.16009906029468
 22
459.363737204734
 32
0
 13
60.16009906029468
 23
459.363737204734
 33
0
  0
TEXT
  8
1
 62
3
 10
59.63355653654336
 20
460.766237204734
 30
0
 40
1.75
  1
3,3
 41
0.7200000000000001
  0
ENDBLK
  8
0
  0
BLOCK
  8
1
  2
*D2
 70
1
 10
0
 20
0
 30
0
  0
LINE
  8
1
 62
2
 10
55.10554655919806
 20
453.5006017029331
 30
0
 11
87.40554655916547
 21
453.5006017029331
 31
0
  0
LINE
  8
1
 62
2
 10
87.40554655916547
 20
469.035487280767
 30
0
 11
87.40554655916547
 21
453.0006017029331
 31
0
  0
LINE
  8
1
 62
2
 10
55.10554655919806
 20
468.2354872807787
 30
0
 11
55.10554655919806
 21
453.0006017029331
 31
0
  0
SOLID
  8
1
 62
2
 10
55.10554655919806
 20
453.5006017029331
 30
0
 11
56.85554655919806
 21
453.7281017029332
 31
0
 12
56.85554655919806
 22
453.2731017029331
 32
0
 13
56.85554655919806
 23
453.2731017029331
 33
0
  0
SOLID
  8
1
 62
2
 10
87.40554655916547
 20
453.5006017029331
 30
0
 11
85.65554655916547
 21
453.2731017029331
 31
0
 12
85.65554655916547
 22
453.7281017029332
 32
0
 13
85.65554655916547
 23
453.7281017029332
 33
0
  0
TEXT
  8
1
 62
3
 10
67.67786740780747
 20
454.6756017029331
 30
0
 40
1.75
  1
32,3
 41
0.7200000000000001
  0
TEXT
  8
1
 62
3
 10
72.40286740780746
 20
454.9118517029331
 30
0
 40
1.225
  1
%%p0,5
 41
0.7200000000000001
  0
ENDBLK
  8
0
  0
BLOCK
  8
1
  2
*D3
 70
1
 10
0
 20
0
 30
0
  0
LINE
  8
1
 62
2
 10
89.9055465591655
 20
464.810710948576
 30
0
 11
99.9055465591655
 21
464.810710948576
 31
0
  0
LINE
  8
1
 62
2
 10
89.9055465591655
 20
478.2354872807787
 30
0
 11
89.9055465591655
 21
464.310710948576
 31
0
  0
LINE
  8
1
 62
2
 10
99.9055465591655
 20
479.8167172048369
 30
0
 11
99.9055465591655
 21
464.310710948576
 31
0
  0
SOLID
  8
1
 62
2
 10
99.9055465591655
 20
464.810710948576
 30
0
 11
98.1555465591655
 21
464.583210948576
 31
0
 12
98.1555465591655
 22
465.038210948576
 32
0
 13
98.1555465591655
 23
465.038210948576
 33
0
  0
SOLID
  8
1
 62
2
 10
89.9055465591655
 20
464.810710948576
 30
0
 11
91.6555465591655
 21
465.038210948576
 31
0
 12
91.6555465591655
 22
464.583210948576
 32
0
 13
91.6555465591655
 23
464.583210948576
 33
0
  0
TEXT
  8
1
 62
3
 10
92.54582189066578
 20
465.810710948576
 30
0
 40
1.75
  1
10
 41
0.7200000000000001
  0
TEXT
  8
1
 62
3
 10
95.10082189066579
 20
466.134460948576
 30
0
 40
1.225
  1
%%p0,3
 41
0.7200000000000001
  0
ENDBLK
  8
0
  0
BLOCK
  8
1
  2
*D4
 70
1
 10
0
 20
0
 30
0
  0
LINE
  8
1
 62
2
 10
9.451822659097912
 20
504.2726976134534
 30
0
 11
11.45182265909791
 21
504.2726976134534
 31
0
  0
LINE
  8
1
 62
2
 10
9.451822659097912
 20
504.2726976134534
 30
0
 11
5.951822659097912
 21
504.2726976134534
 31
0
  0
LINE
  8
1
 62
2
 10
11.45182265909791
 20
504.2726976134534
 30
0
 11
14.95182265909791
 21
504.2726976134534
 31
0
  0
LINE
  8
1
 62
2
 10
9.451822659097912
 20
500.035633315926
 30
0
 11
9.451822659097912
 21
504.7726976134534
 31
0
  0
LINE
  8
1
 62
2
 10
9.451822659097912
 20
489.735487280779
 30
0
 11
9.451822659097912
 21
498.257799534459
 31
0
  0
LINE
  8
1
 62
2
 10
11.45182265909791
 20
489.735487280779
 30
0
 11
11.45182265909791
 21
504.7726976134534
 31
0
  0
SOLID
  8
1
 62
2
 10
9.451822659097912
 20
504.2726976134534
 30
0
 11
7.701822659097912
 21
504.0451976134534
 31
0
 12
7.701822659097912
 22
504.5001976134535
 32
0
 13
7.701822659097912
 23
504.5001976134535
 33
0
  0
SOLID
  8
1
 62
2
 10
11.45182265909791
 20
504.2726976134534
 30
0
 11
13.20182265909791
 21
504.5001976134535
 31
0
 12
13.20182265909791
 22
504.0451976134534
 32
0
 13
13.20182265909791
 23
504.0451976134534
 33
0
  0
TEXT
  8
1
 62
3
 10
8.16137272478622
 20
505.4476976134534
 30
0
 40
1.75
  1
2
 41
0.7200000000000001
  0
TEXT
  8
1
 62
3
 10
6.306372724786221
 20
505.4476976134534
 30
0
 40
1.75
  1
M
 41
0.7200000000000001
  0
TEXT
  8
1
 62
3
 10
9.87637272478622
 20
505.4476976134534
 30
0
 40
1.75
  1
x2,3
 41
0.7200000000000001
  0
ENDBLK
  8
0
  0
BLOCK
  8
1
  2
*D5
 70
1
 10
0
 20
0
 30
0
  0
LINE
  8
1
 62
2
 10
87.40554655916547
 20
459.89046479012
 30
0
 11
79.67679307385447
 21
459.89046479012
 31
0
  0
LINE
  8
1
 62
2
 10
87.40554655916547
 20
459.89046479012
 30
0
 11
88.90554655916547
 21
459.89046479012
 31
0
  0
LINE
  8
1
 62
2
 10
92.40554655916547
 20
459.89046479012
 30
0
 11
88.90554655916547
 21
459.89046479012
 31
0
  0
LINE
  8
1
 62
2
 10
88.90554655916547
 20
476.2354872807786
 30
0
 11
88.90554655916547
 21
459.39046479012
 31
0
  0
LINE
  8
1
 62
2
 10
87.40554655916547
 20
469.0354872807669
 30
0
 11
87.40554655916547
 21
459.39046479012
 31
0
  0
SOLID
  8
1
 62
2
 10
87.40554655916547
 20
459.89046479012
 30
0
 11
85.65554655916547
 21
459.66296479012
 31
0
 12
85.65554655916547
 22
460.11796479012
 32
0
 13
85.65554655916547
 23
460.11796479012
 33
0
  0
SOLID
  8
1
 62
2
 10
88.90554655916547
 20
459.89046479012
 30
0
 11
90.65554655916547
 21
460.11796479012
 31
0
 12
90.65554655916547
 22
459.66296479012
 32
0
 13
90.65554655916547
 23
459.66296479012
 33
0
  0
TEXT
  8
1
 62
3
 10
79.67679307385447
 20
461.06546479012
 30
0
 40
1.75
  1
1,5
 41
0.7200000000000001
  0
TEXT
  8
1
 62
3
 10
82.72179307385447
 20
461.30171479012
 30
0
 40
1.225
  1
%%p0,1
 41
0.7200000000000001
  0
ENDBLK
  8
0
  0
BLOCK
  8
1
  2
*D6
 70
1
 10
0
 20
0
 30
0
  0
LINE
  8
1
 62
2
 10
87.40554655916549
 20
453.5006017029331
 30
0
 11
99.90554655916549
 21
453.5006017029331
 31
0
  0
LINE
  8
1
 62
2
 10
99.90554655916549
 20
479.816717204837
 30
0
 11
99.90554655916549
 21
453.0006017029331
 31
0
  0
LINE
  8
1
 62
2
 10
87.40554655916549
 20
469.035487280767
 30
0
 11
87.40554655916549
 21
453.0006017029331
 31
0
  0
SOLID
  8
1
 62
2
 10
99.90554655916549
 20
453.5006017029331
 30
0
 11
98.15554655916549
 21
453.2731017029331
 31
0
 12
98.15554655916549
 22
453.7281017029332
 32
0
 13
98.15554655916549
 23
453.7281017029332
 33
0
  0
SOLID
  8
1
 62
2
 10
87.40554655916549
 20
453.5006017029331
 30
0
 11
89.15554655916549
 21
453.7281017029332
 31
0
 12
89.15554655916549
 22
453.2731017029331
 32
0
 13
89.15554655916549
 23
453.2731017029331
 33
0
  0
TEXT
  8
1
 62
3
 10
91.42297355035048
 20
454.6756017029331
 30
0
 40
1.75
  1
12,5
 41
0.7200000000000001
  0
TEXT
  8
1
 62
3
 10
95.72797355035048
 20
454.9118517029331
 30
0
 40
1.225
  1
%%p0,3
 41
0.7200000000000001
  0
ENDBLK
  8
0
  0
BLOCK
  8
1
  2
*D7
 70
1
 10
0
 20
0
 30
0
  0
LINE
  8
1
 62
2
 10
110.247689956699
 20
482.7354872807787
 30
0
 11
110.247689956699
 21
495.279163811001
 31
0
  0
LINE
  8
1
 62
2
 10
99.65554655916552
 20
482.7354872807787
 30
0
 11
110.747689956699
 21
482.7354872807787
 31
0
  0
SOLID
  8
1
 62
2
 10
110.247689956699
 20
482.7354872807787
 30
0
 11
110.020189956699
 21
484.4854872807787
 31
0
 12
110.475189956699
 22
484.4854872807787
 32
0
 13
110.475189956699
 23
484.4854872807787
 33
0
  0
TEXT
  8
1
 62
3
 10
108.438314956699
 20
489.203163811001
 30
0
 40
1.75
  1
3
 50
90
 41
0.7200000000000001
  0
TEXT
  8
1
 62
3
 10
107.103939956699
 20
490.918163811001
 30
0
 40
1.225
  1
-0,006
 50
90
 41
0.7200000000000001
  0
TEXT
  8
1
 62
3
 10
109.125189956699
 20
490.918163811001
 30
0
 40
1.225
  1
-0,009
 50
90
 41
0.7200000000000001
  0
TEXT
  8
1
 62
3
 10
108.438314956699
 20
487.488163811001
 30
0
 40
1.75
  1
Ö
 50
90
 41
0.7200000000000001
  0
ENDBLK
  8
0
  0
BLOCK
  8
1
  2
*D8
 70
1
 10
0
 20
0
 30
0
  0
LINE
  8
1
 62
2
 10
94.87168645561339
 20
486.2354872807787
 30
0
 11
94.87168645561339
 21
498.056583196583
 31
0
  0
LINE
  8
1
 62
2
 10
88.9055465591655
 20
486.2354872807787
 30
0
 11
95.37168645561339
 21
486.2354872807787
 31
0
  0
SOLID
  8
1
 62
2
 10
94.87168645561339
 20
486.2354872807787
 30
0
 11
94.64418645561338
 21
487.9854872807787
 31
0
 12
95.09918645561339
 22
487.9854872807787
 32
0
 13
95.09918645561339
 23
487.9854872807787
 33
0
  0
TEXT
  8
1
 62
3
 10
93.06231145561338
 20
491.140583196583
 30
0
 40
1.75
  1
10
 50
90
 41
0.7200000000000001
  0
TEXT
  8
1
 62
3
 10
91.85043645561338
 20
493.695583196583
 30
0
 40
1.225
  1
 0
 50
90
 41
0.7200000000000001
  0
TEXT
  8
1
 62
3
 10
93.74918645561338
 20
493.695583196583
 30
0
 40
1.225
  1
-0,022
 50
90
 41
0.7200000000000001
  0
TEXT
  8
1
 62
3
 10
93.06231145561338
 20
489.425583196583
 30
0
 40
1.75
  1
Ö
 50
90
 41
0.7200000000000001
  0
ENDBLK
  8
0
  0
BLOCK
  8
1
  2
*D9
 70
1
 10
0
 20
0
 30
0
  0
LINE
  8
1
 62
2
 10
72.85040244391097
 20
494.2354872807787
 30
0
 11
72.85040244391097
 21
503.7481229233312
 31
0
  0
LINE
  8
1
 62
2
 10
86.60554655926444
 20
494.2354872807787
 30
0
 11
72.35040244391097
 21
494.2354872807787
 31
0
  0
SOLID
  8
1
 62
2
 10
72.85040244391097
 20
494.2354872807787
 30
0
 11
72.62290244391096
 21
495.9854872807787
 31
0
 12
73.07790244391097
 22
495.9854872807787
 32
0
 13
73.07790244391097
 23
495.9854872807787
 33
0
  0
TEXT
  8
1
 62
3
 10
71.04102744391096
 20
498.4701229233311
 30
0
 40
1.75
  1
26
 50
90
 41
0.7200000000000001
  0
TEXT
  8
1
 62
3
 10
69.82915244391096
 20
501.4451229233311
 30
0
 40
1.225
  1
 0
 50
90
 41
0.7200000000000001
  0
TEXT
  8
1
 62
3
 10
71.72790244391096
 20
501.4451229233311
 30
0
 40
1.225
  1
-0,1
 50
90
 41
0.7200000000000001
  0
TEXT
  8
1
 62
3
 10
71.04102744391096
 20
496.7551229233311
 30
0
 40
1.75
  1
Ö
 50
90
 41
0.7200000000000001
  0
ENDBLK
  8
0
  0
BLOCK
  8
1
  2
*D10
 70
1
 10
0
 20
0
 30
0
  0
LINE
  8
1
 62
2
 10
101.7716549903407
 20
484.2354872807787
 30
0
 11
101.7716549903407
 21
496.250956853604
 31
0
  0
LINE
  8
1
 62
2
 10
89.90554655916549
 20
484.2354872807787
 30
0
 11
102.2716549903407
 21
484.2354872807787
 31
0
  0
SOLID
  8
1
 62
2
 10
101.7716549903407
 20
484.2354872807787
 30
0
 11
101.5441549903407
 21
485.9854872807787
 31
0
 12
101.9991549903407
 22
485.9854872807787
 32
0
 13
101.9991549903407
 23
485.9854872807787
 33
0
  0
TEXT
  8
1
 62
3
 10
100.7716549903407
 20
491.154956853604
 30
0
 40
1.75
  1
6
 50
90
 41
0.7200000000000001
  0
TEXT
  8
1
 62
3
 10
100.4479049903407
 20
492.869956853604
 30
0
 40
1.225
  1
%%p0,05
 50
90
 41
0.7200000000000001
  0
TEXT
  8
1
 62
3
 10
100.7716549903407
 20
489.439956853604
 30
0
 40
1.75
  1
Ö
 50
90
 41
0.7200000000000001
  0
ENDBLK
  8
0
  0
BLOCK
  8
1
  2
*D11
 70
1
 10
0
 20
0
 30
0
  0
LINE
  8
1
 62
2
 10
1.951822659097921
 20
510.857527064091
 30
0
 11
13.0454252958393
 21
510.857527064091
 31
0
  0
LINE
  8
1
 62
2
 10
1.951822659097921
 20
481.235487280779
 30
0
 11
1.951822659097921
 21
495.9402662121889
 31
0
  0
LINE
  8
1
 62
2
 10
1.951822659097921
 20
497.78159405728
 30
0
 11
1.951822659097921
 21
511.357527064091
 31
0
  0
SOLID
  8
1
 62
2
 10
1.951822659097921
 20
510.857527064091
 30
0
 11
3.701822659097921
 21
511.085027064091
 31
0
 12
3.701822659097921
 22
510.6300270640909
 32
0
 13
3.701822659097921
 23
510.6300270640909
 33
0
  0
TEXT
  8
1
 62
3
 10
11.3654252958393
 20
511.857527064091
 30
0
 40
1.75
  1
17
 41
0.7200000000000001
  0
TEXT
  8
1
 62
3
 10
9.6504252958393
 20
511.857527064091
 30
0
 40
1.75
  1
Ö
 41
0.7200000000000001
  0
ENDBLK
  8
0
  0
BLOCK
  8
1
  2
*D12
 70
1
 10
0
 20
0
 30
0
  0
LINE
  8
1
 62
2
 10
10.45182265909791
 20
499.1574966469404
 30
0
 11
10.45182265909791
 21
499.6574966469404
 31
0
  0
LINE
  8
1
 62
2
 10
-5.069092738860345
 20
472.274482597698
 30
0
 11
-5.50210544075256
 21
472.024482597698
 31
0
  0
LINE
  8
1
 62
2
 10
10.45182265909791
 20
495.0707210061572
 30
0
 11
10.45182265909791
 21
499.1574966469404
 31
0
  0
LINE
  8
1
 62
2
 10
1.497081553807981
 20
476.0654650931163
 30
0
 11
-5.069092738860345
 21
472.274482597698
 31
0
  0
ARC
  8
1
 62
2
 10
10.45182265909791
 20
481.235487280779
 30
0
 40
17.92200936616138
 50
90
 51
210.0000000000011
  0
SOLID
  8
1
 62
2
 10
10.45182265909791
 20
499.1574966469404
 30
0
 11
8.715010680561218
 21
498.8448620339951
 31
0
 12
8.692805198713208
 22
499.2993198610549
 32
0
 13
8.692805198713208
 23
499.2993198610549
 33
0
  0
SOLID
  8
1
 62
2
 10
-5.069092738860345
 20
472.274482597698
 30
0
 11
-6.071423975322208
 21
473.7269247970343
 31
0
 12
-5.666749211215762
 22
473.9349231991806
 32
0
 13
-5.666749211215762
 23
473.9349231991806
 33
0
  0
TEXT
  8
1
 62
3
 10
-6.106834850622832
 20
490.4048142014897
 30
0
 40
1.75
  1
120%%d
 50
59.59415591922214
 41
0.7200000000000001
  0
TEXT
  8
1
 62
3
 10
-7.612547016850783
 20
487.8389896025599
 30
0
 40
1.75
  1
3x
 50
59.59415591922214
 41
0.7200000000000001
  0
ENDBLK
  8
0
  0
BLOCK
  8
0
  2
ARBRE_DE_SORTIE__2_TOP_
 70
0
 10
23.57
 20
35.85
 30
0
  0
INSERT
  8
1
  2
*X0
 10
0
 20
0
 30
0
  0
INSERT
  8
1
  2
*X1
 10
0
 20
0
 30
0
  0
INSERT
  8
1
  2
*X2
 10
0
 20
0
 30
0
  0
INSERT
  8
1
  2
*X3
 10
0
 20
0
 30
0
  0
INSERT
  8
1
  2
*X4
 10
0
 20
0
 30
0
  0
INSERT
  8
1
  2
*X5
 10
0
 20
0
 30
0
  0
LINE
  8
1
 62
2
  6
DASHDOT
 10
24.94086155332556
 20
481.235487280779
 30
0
 11
-4.134458106905331
 21
481.235487280779
 31
0
  0
LINE
  8
1
 62
2
  6
DASHDOT
 10
10.45182265909791
 20
481.235487280779
 30
0
 11
19.40656376438787
 21
476.0654650931163
 31
0
  0
LINE
  8
1
 62
2
  6
DASHDOT
 10
10.45182265909791
 20
481.235487280779
 30
0
 11
1.497081553807981
 21
476.0654650931163
 31
0
  0
LINE
  8
1
 62
2
  6
DASHDOT
 10
10.45182265909791
 20
495.0707210061572
 30
0
 11
10.45182265909791
 21
467.1260459255462
 31
0
  0
LINE
  8
1
 62
3
 10
14.98541179798197
 20
502.5179209004344
 30
0
 11
28.98541179798198
 21
502.5179209004344
 31
0
  0
LINE
  8
1
 62
3
 10
28.98541179798198
 20
502.5179209004344
 30
0
 11
28.98541179798198
 21
506.0179209004344
 31
0
  0
LINE
  8
1
 62
3
 10
28.98541179798198
 20
506.0179209004344
 30
0
 11
14.98541179798197
 21
506.0179209004344
 31
0
  0
LINE
  8
1
 62
3
 10
14.98541179798197
 20
506.0179209004344
 30
0
 11
14.98541179798197
 21
502.5179209004344
 31
0
  0
LINE
  8
1
 62
3
 10
25.48541179798198
 20
502.5179209004344
 30
0
 11
25.48541179798198
 21
506.0179209004344
 31
0
  0
LINE
  8
1
 62
3
 10
18.48541179798198
 20
502.5179209004344
 30
0
 11
18.48541179798198
 21
506.0179209004344
 31
0
  0
LINE
  8
1
 62
3
 10
15.48541179798197
 20
504.2679209004344
 30
0
 11
17.98541179798198
 21
504.2679209004344
 31
0
  0
LINE
  8
1
 62
3
 10
16.73541179798198
 20
505.5179209004344
 30
0
 11
16.73541179798198
 21
503.0179209004344
 31
0
  0
LINE
  8
1
 62
2
  6
DASHDOT
 10
106.3856762320759
 20
481.2354872807787
 30
0
 11
51.31567623207587
 21
481.2354872807787
 31
0
  0
LINE
  8
1
 62
3
 10
102.5847221962898
 20
477.7354872807787
 30
0
 11
102.5847221962898
 21
474.2354872807787
 31
0
  0
LINE
  8
1
 62
3
 10
102.5847221962898
 20
474.2354872807787
 30
0
 11
106.0847221962898
 21
474.2354872807787
 31
0
  0
LINE
  8
1
 62
3
 10
106.0847221962898
 20
474.2354872807787
 30
0
 11
106.0847221962898
 21
477.7354872807787
 31
0
  0
LINE
  8
1
 62
3
 10
106.0847221962898
 20
477.7354872807787
 30
0
 11
102.5847221962898
 21
477.7354872807787
 31
0
  0
LINE
  8
1
 62
7
 10
58.41009906029468
 20
494.2354872807787
 30
0
 11
56.51009906030051
 21
494.2354872807787
 31
0
  0
LINE
  8
1
 62
7
 10
58.41009906029468
 20
494.2354872807787
 30
0
 11
58.41009906029468
 21
468.2354872807787
 31
0
  0
LINE
  8
1
 62
7
 10
56.50554655919225
 20
468.2354872807787
 30
0
 11
56.70554655908747
 21
468.2354872807787
 31
0
  0
LINE
  8
1
 62
7
 10
56.37398285019119
 20
468.2354872807787
 30
0
 11
56.37398285019119
 21
464.7984209302244
 31
0
  0
LINE
  8
1
 62
7
 10
55.27398285018537
 20
468.2354872807787
 30
0
 11
55.27398285018537
 21
464.7984209302244
 31
0
  0
LINE
  8
1
 62
7
 10
55.10554655919807
 20
468.2354872807787
 30
0
 11
56.50554655919225
 21
468.2354872807787
 31
0
  0
LINE
  8
1
 62
7
 10
56.51009906030051
 20
494.2354872807787
 30
0
 11
55.91009904789646
 21
494.2354872807787
 31
0
  0
LINE
  8
1
 62
7
 10
58.41009906029468
 20
468.2354872807787
 30
0
 11
56.70554655908747
 21
468.2354872807787
 31
0
  0
LINE
  8
1
 62
7
 10
58.41009906029468
 20
468.2354872807787
 30
0
 11
86.60554655926447
 21
468.2354872807787
 31
0
  0
LINE
  8
1
 62
7
 10
86.60554655926447
 20
468.2354872807787
 30
0
 11
87.40554655916546
 21
469.035487280767
 31
0
  0
LINE
  8
1
 62
7
 10
87.40554655916546
 20
493.4354872807758
 30
0
 11
86.60554655926447
 21
494.2354872807787
 31
0
  0
LINE
  8
1
 62
7
 10
86.60554655926447
 20
494.2354872807787
 30
0
 11
57.21009906031215
 21
494.2354872807787
 31
0
  0
LINE
  8
1
 62
7
 10
87.40554655916546
 20
493.4354872807758
 30
0
 11
87.40554655916546
 21
469.035487280767
 31
0
  0
LINE
  8
1
 62
7
 10
55.27398285018537
 20
464.7984209302244
 30
0
 11
55.16173953570799
 21
463.1409129081599
 31
0
  0
LINE
  8
1
 62
7
 10
55.10554655919807
 20
494.2354872807496
 30
0
 11
55.10554655919807
 21
494.2354872807787
 31
0
  0
LINE
  8
1
 62
7
 10
55.91009904789646
 20
494.2354872807787
 30
0
 11
55.10554655919807
 21
494.2354872807787
 31
0
  0
LINE
  8
1
 62
7
 10
55.10554655919807
 20
494.2354872807787
 30
0
 11
55.10554655919807
 21
468.2354872807787
 31
0
  0
LINE
  8
1
 62
7
 10
56.49577449918981
 20
462.9999117174316
 30
0
 11
56.37398285019119
 21
464.7984209302244
 31
0
  0
LINE
  8
1
 62
7
 10
56.22976060868498
 20
462.8715097205291
 30
0
 11
56.37398285019119
 21
464.7984209302244
 31
0
  0
LINE
  8
1
 62
7
 10
88.90554655916546
 20
486.2354872807787
 30
0
 11
88.90554655916546
 21
484.2354872807787
 31
0
  0
LINE
  8
1
 62
7
 10
88.90554655916546
 20
481.2354872807787
 30
0
 11
88.90554655916546
 21
478.2354872807787
 31
0
  0
LINE
  8
1
 62
7
 10
88.90554655916546
 20
476.2354872807787
 30
0
 11
87.40554655916546
 21
476.2354872807787
 31
0
  0
LINE
  8
1
 62
7
 10
99.90554655916546
 20
479.8167172048369
 30
0
 11
99.65554655916546
 21
479.7354872807787
 31
0
  0
LINE
  8
1
 62
7
 10
99.90554655916546
 20
482.6542573567205
 30
0
 11
99.90554655916546
 21
479.8167172048369
 31
0
  0
LINE
  8
1
 62
7
 10
99.65554655916546
 20
482.7354872807787
 30
0
 11
99.90554655916546
 21
482.6542573567205
 31
0
  0
LINE
  8
1
 62
2
 10
99.65554655916546
 20
479.8354872807787
 30
0
 11
99.65554655916546
 21
482.6354872807787
 31
0
  0
LINE
  8
1
 62
7
 10
87.40554655916546
 20
486.2354872807787
 30
0
 11
88.90554655916546
 21
486.2354872807787
 31
0
  0
LINE
  8
1
 62
7
 10
88.90554655916546
 20
482.7354872807787
 30
0
 11
88.90554655916546
 21
481.2354872807787
 31
0
  0
LINE
  8
1
 62
7
 10
86.60554655926447
 20
494.2354872807787
 30
0
 11
86.60554655926447
 21
468.2354872807787
 31
0
  0
LINE
  8
1
 62
7
 10
88.90554655916546
 20
484.2354872807787
 30
0
 11
89.90554655916546
 21
484.2354872807787
 31
0
  0
LINE
  8
1
 62
7
 10
88.90554655916546
 20
484.2354872807787
 30
0
 11
88.90554655916546
 21
482.7354872807787
 31
0
  0
LINE
  8
1
 62
7
 10
89.90554655916546
 20
484.2354872807787
 30
0
 11
89.90554655916546
 21
478.2354872807787
 31
0
  0
LINE
  8
1
 62
7
 10
89.90554655916546
 20
478.2354872807787
 30
0
 11
88.90554655916546
 21
478.2354872807787
 31
0
  0
LINE
  8
1
 62
7
 10
88.90554655916546
 20
478.2354872807787
 30
0
 11
88.90554655916546
 21
476.2354872807787
 31
0
  0
LINE
  8
1
 62
7
 10
89.90554655916546
 20
479.7354872807787
 30
0
 11
99.65554655916546
 21
479.7354872807787
 31
0
  0
LINE
  8
1
 62
7
 10
89.90554655916546
 20
482.7354872807787
 30
0
 11
99.65554655916546
 21
482.7354872807787
 31
0
  0
LINE
  8
1
 62
2
 10
11.87760856254177
 20
446.5816249552539
 30
0
 11
11.04760856254178
 21
447.271624955254
 31
0
  0
LINE
  8
1
 62
2
 10
11.04760856254178
 20
447.271624955254
 30
0
 11
11.04760856254178
 21
447.8216249552539
 31
0
  0
LINE
  8
1
 62
2
 10
9.856036755654067
 20
447.271624955254
 30
0
 11
9.026036755654062
 21
446.5816249552539
 31
0
  0
LINE
  8
1
 62
2
 10
9.856036755654067
 20
447.8216249552539
 30
0
 11
9.856036755654067
 21
447.271624955254
 31
0
  0
LINE
  8
1
 62
2
 10
12.28548142341179
 20
447.271624955254
 30
0
 11
12.28548142341179
 21
447.8216249552539
 31
0
  0
LINE
  8
1
 62
2
 10
13.30548142341178
 20
446.621624955254
 30
0
 11
12.28548142341179
 21
447.271624955254
 31
0
  0
LINE
  8
1
 62
2
 10
8.61816389478405
 20
447.271624955254
 30
0
 11
7.59816389478404
 21
446.621624955254
 31
0
  0
LINE
  8
1
 62
2
 10
8.61816389478405
 20
447.8216249552539
 30
0
 11
8.61816389478405
 21
447.271624955254
 31
0
  0
LINE
  8
1
 62
2
 10
14.73335293137344
 20
446.641624955254
 30
0
 11
13.58335293137343
 21
447.271624955254
 31
0
  0
LINE
  8
1
 62
2
 10
13.58335293137343
 20
447.271624955254
 30
0
 11
13.58335293137343
 21
447.8216249552539
 31
0
  0
LINE
  8
1
 62
2
 10
7.320292386822409
 20
447.271624955254
 30
0
 11
6.1702923868224
 21
446.641624955254
 31
0
  0
LINE
  8
1
 62
2
 10
7.320292386822409
 20
447.8216249552539
 30
0
 11
7.320292386822409
 21
447.271624955254
 31
0
  0
LINE
  8
1
 62
3
 10
7.916822659214009
 20
450.8793109636814
 30
0
 11
7.916822659214009
 21
459.1475399841988
 31
0
  0
LINE
  8
1
 62
3
 10
6.82182265931964
 20
450.8793109636814
 30
0
 11
6.82182265931964
 21
458.305314728951
 31
0
  0
LINE
  8
1
 62
3
 10
7.115063476835829
 20
450.8793109636814
 30
0
 11
7.663679284053899
 21
450.8793109636814
 31
0
  0
LINE
  8
1
 62
3
 10
7.115063476835829
 20
450.8793109636814
 30
0
 11
7.115063476835829
 21
450.879211217522
 31
0
  0
LINE
  8
1
 62
3
 10
7.663679284053899
 20
450.8793109636814
 30
0
 11
7.916822659214009
 21
450.8793109636814
 31
0
  0
LINE
  8
1
 62
3
 10
7.663679284053899
 20
450.8792112175219
 30
0
 11
7.663679284053899
 21
450.8793109636814
 31
0
  0
LINE
  8
1
 62
3
 10
7.663679284053899
 20
448.0349488696655
 30
0
 11
7.663679284053899
 21
450.8792112175219
 31
0
  0
LINE
  8
1
 62
3
 10
7.114095998133209
 20
448.0349488696655
 30
0
 11
7.663679284053899
 21
448.0349488696655
 31
0
  0
LINE
  8
1
 62
3
 10
7.115063476835829
 20
450.879211217522
 30
0
 11
7.114095998133209
 21
448.0349488696655
 31
0
  0
LINE
  8
1
 62
3
 10
6.821822659329261
 20
450.8793109636814
 30
0
 11
7.115063476835829
 21
450.8793109636814
 31
0
  0
LINE
  8
1
 62
3
 10
13.23996603414193
 20
450.8793109636814
 30
0
 11
13.78858184136
 21
450.8793109636814
 31
0
  0
LINE
  8
1
 62
3
 10
13.78858184136
 20
450.879211217522
 30
0
 11
13.78858184136
 21
450.8793109636814
 31
0
  0
LINE
  8
1
 62
3
 10
12.98682265898181
 20
450.8793109636814
 30
0
 11
13.23996603414193
 21
450.8793109636814
 31
0
  0
LINE
  8
1
 62
3
 10
13.23996603414193
 20
450.8793109636814
 30
0
 11
13.23996603414193
 21
450.8792112175219
 31
0
  0
LINE
  8
1
 62
3
 10
13.23996603414193
 20
450.8792112175219
 30
0
 11
13.23996603414193
 21
448.0349488696655
 31
0
  0
LINE
  8
1
 62
3
 10
13.23996603414193
 20
448.0349488696655
 30
0
 11
13.78954932006262
 21
448.0349488696655
 31
0
  0
LINE
  8
1
 62
3
 10
13.78954932006262
 20
448.0349488696655
 30
0
 11
13.78858184136
 21
450.879211217522
 31
0
  0
LINE
  8
1
 62
3
 10
13.78858184136
 20
450.8793109636814
 30
0
 11
14.08182265886658
 21
450.8793109636814
 31
0
  0
LINE
  8
1
 62
3
 10
14.0818226588762
 20
468.7525749602658
 30
0
 11
14.0818226588762
 21
460.685503793131
 31
0
  0
LINE
  8
1
 62
3
 10
14.0818226588762
 20
468.7525749602658
 30
0
 11
14.0818226588762
 21
460.685503793131
 31
0
  0
LINE
  8
1
 62
3
 10
12.98682265898181
 20
468.4850451315592
 30
0
 11
12.98682265898181
 21
459.0697293126291
 31
0
  0
LINE
  8
1
 62
3
 10
12.81682265898181
 20
468.2976706179861
 30
0
 11
12.81682265898181
 21
458.9259670048871
 31
0
  0
LINE
  8
1
 62
3
 10
8.380063476730211
 20
450.8793109636814
 30
0
 11
8.928679283948281
 21
450.8793109636814
 31
0
  0
LINE
  8
1
 62
3
 10
8.380063476730211
 20
450.8793109636814
 30
0
 11
8.380063476730211
 21
450.879211217522
 31
0
  0
LINE
  8
1
 62
3
 10
8.928679283948281
 20
450.8793109636814
 30
0
 11
9.181822659108391
 21
450.8793109636814
 31
0
  0
LINE
  8
1
 62
3
 10
8.928679283948281
 20
450.8792112175219
 30
0
 11
8.928679283948281
 21
450.8793109636814
 31
0
  0
LINE
  8
1
 62
3
 10
8.928679283948281
 20
448.0349488696655
 30
0
 11
8.928679283948281
 21
450.8792112175219
 31
0
  0
LINE
  8
1
 62
3
 10
8.379095998027591
 20
448.0349488696655
 30
0
 11
8.928679283948281
 21
448.0349488696655
 31
0
  0
LINE
  8
1
 62
3
 10
8.380063476730211
 20
450.879211217522
 30
0
 11
8.379095998027591
 21
448.0349488696655
 31
0
  0
LINE
  8
1
 62
3
 10
8.086822659223632
 20
450.8793109636814
 30
0
 11
8.380063476730211
 21
450.8793109636814
 31
0
  0
LINE
  8
1
 62
3
 10
8.086822659195182
 20
468.4524213339698
 30
0
 11
8.086822659208
 21
460.5277453894603
 31
0
  0
LINE
  8
1
 62
3
 10
9.181822659108391
 20
450.8793109636814
 30
0
 11
9.181822659108391
 21
459.0323686964599
 31
0
  0
LINE
  8
1
 62
3
 10
11.54682265909908
 20
468.281685715215
 30
0
 11
11.54682265909908
 21
458.7213861138253
 31
0
  0
LINE
  8
1
 62
3
 10
11.72182265908744
 20
468.2976706179861
 30
0
 11
11.72182265908744
 21
458.6669625550038
 31
0
  0
LINE
  8
1
 62
3
 10
9.630572659097052
 20
448.0349488696655
 30
0
 11
10.17807265909762
 21
448.0349488696655
 31
0
  0
LINE
  8
1
 62
3
 10
9.630572659097052
 20
450.8793109636814
 30
0
 11
9.630572659097052
 21
448.0349488696655
 31
0
  0
LINE
  8
1
 62
3
 10
10.17807265909762
 20
448.0349488696655
 30
0
 11
10.17807265909762
 21
450.8793109636814
 31
0
  0
LINE
  8
1
 62
3
 10
9.35682265909675
 20
450.8793109636814
 30
0
 11
9.630572659097052
 21
450.8793109636814
 31
0
  0
LINE
  8
1
 62
3
 10
9.630572659097052
 20
450.8793109636814
 30
0
 11
10.17807265909762
 21
450.8793109636814
 31
0
  0
LINE
  8
1
 62
3
 10
10.17807265909762
 20
450.8793109636814
 30
0
 11
10.45182265909791
 21
450.8793109636814
 31
0
  0
LINE
  8
1
 62
3
 10
9.35682265909675
 20
450.8793109636814
 30
0
 11
9.35682265909675
 21
458.9373435826562
 31
0
  0
LINE
  8
1
 62
3
 10
12.8168226589722
 20
450.8793109636814
 30
0
 11
12.81682265898308
 21
457.5959670048881
 31
0
  0
LINE
  8
1
 62
3
 10
10.45182265909791
 20
468.2354872807786
 30
0
 11
10.45182265909791
 21
459.4385910363513
 31
0
  0
LINE
  8
1
 62
3
 10
11.97496603424754
 20
450.8793109636814
 30
0
 11
12.52358184146561
 21
450.8793109636814
 31
0
  0
LINE
  8
1
 62
3
 10
12.52358184146561
 20
450.879211217522
 30
0
 11
12.52358184146561
 21
450.8793109636814
 31
0
  0
LINE
  8
1
 62
3
 10
11.72182265908744
 20
450.8793109636814
 30
0
 11
11.97496603424754
 21
450.8793109636814
 31
0
  0
LINE
  8
1
 62
3
 10
11.97496603424754
 20
450.8793109636814
 30
0
 11
11.97496603424754
 21
450.8792112175219
 31
0
  0
LINE
  8
1
 62
3
 10
10.45182265909791
 20
450.8793109636814
 30
0
 11
10.72557265909822
 21
450.8793109636814
 31
0
  0
LINE
  8
1
 62
3
 10
10.72557265909822
 20
450.8793109636814
 30
0
 11
10.72557265909822
 21
448.0349488696655
 31
0
  0
LINE
  8
1
 62
3
 10
10.72557265909822
 20
448.0349488696655
 30
0
 11
11.27307265909879
 21
448.0349488696655
 31
0
  0
LINE
  8
1
 62
3
 10
10.72557265909822
 20
450.8793109636814
 30
0
 11
11.27307265909879
 21
450.8793109636814
 31
0
  0
LINE
  8
1
 62
3
 10
11.27307265909879
 20
448.0349488696655
 30
0
 11
11.27307265909879
 21
450.8793109636814
 31
0
  0
LINE
  8
1
 62
3
 10
11.97496603424754
 20
450.8792112175219
 30
0
 11
11.97496603424754
 21
448.0349488696655
 31
0
  0
LINE
  8
1
 62
3
 10
11.97496603424754
 20
448.0349488696655
 30
0
 11
12.52454932016823
 21
448.0349488696655
 31
0
  0
LINE
  8
1
 62
3
 10
12.52454932016823
 20
448.0349488696655
 30
0
 11
12.52358184146561
 21
450.879211217522
 31
0
  0
LINE
  8
1
 62
3
 10
11.27307265909879
 20
450.8793109636814
 30
0
 11
11.54682265909908
 21
450.8793109636814
 31
0
  0
LINE
  8
1
 62
3
 10
12.52358184146561
 20
450.8793109636814
 30
0
 11
12.8168226589722
 21
450.8793109636814
 31
0
  0
LINE
  8
1
 62
3
 10
6.82182265931964
 20
459.635314728951
 30
0
 11
6.82182265931964
 21
468.7525749602658
 31
0
  0
LINE
  8
1
 62
3
 10
14.0818226588762
 20
459.355503793131
 30
0
 11
14.0818226588762
 21
450.8793109636814
 31
0
  0
LINE
  8
1
 62
3
 10
12.98682265898181
 20
457.7397293126292
 30
0
 11
12.98682265898181
 21
450.8793109636814
 31
0
  0
LINE
  8
1
 62
3
 10
12.81682265898308
 20
457.5959670048881
 30
0
 11
12.81682265898181
 21
450.8793109636814
 31
0
  0
LINE
  8
1
 62
3
 10
11.72182265908744
 20
457.3369625550038
 30
0
 11
11.72182265908744
 21
450.8793109636814
 31
0
  0
LINE
  8
1
 62
3
 10
11.54682265909908
 20
457.3913861138253
 30
0
 11
11.54682265909908
 21
450.8793109636814
 31
0
  0
LINE
  8
1
 62
3
 10
10.45182265909791
 20
458.1085910363514
 30
0
 11
10.45182265909791
 21
450.8793109636814
 31
0
  0
LINE
  8
1
 62
3
 10
9.35682265909675
 20
460.2673435826563
 30
0
 11
9.35682265909675
 21
468.281685715215
 31
0
  0
LINE
  8
1
 62
3
 10
9.181822659108391
 20
460.36236869646
 30
0
 11
9.181822659108391
 21
468.2976706179861
 31
0
  0
LINE
  8
1
 62
3
 10
8.08682265921016
 20
459.1977453894608
 30
0
 11
8.086822659223632
 21
450.8793109636814
 31
0
  0
LINE
  8
1
 62
3
 10
7.916822659214009
 20
460.4775399841986
 30
0
 11
7.916822659214009
 21
468.4850451315592
 31
0
  0
LINE
  8
1
 62
3
 10
12.81682265898181
 20
458.9259670048871
 30
0
 11
12.81682265900066
 21
468.4524213339698
 31
0
  0
LINE
  8
1
 62
3
 10
14.0818226588762
 20
459.355503793131
 30
0
 11
14.0818226588762
 21
450.8793109636814
 31
0
  0
LINE
  8
1
 62
3
 10
8.977537204448106
 20
514.295253924374
 30
0
 11
13.77753720444811
 21
514.295253924374
 31
0
  0
LINE
  8
1
 62
3
 10
13.77753720444811
 20
514.295253924374
 30
0
 11
13.77753720444811
 21
511.385253924374
 31
0
  0
LINE
  8
1
 62
3
 10
13.77753720444811
 20
511.385253924374
 30
0
 11
8.977537204448106
 21
511.385253924374
 31
0
  0
LINE
  8
1
 62
3
 10
8.977537204448106
 20
511.385253924374
 30
0
 11
8.977537204448106
 21
514.295253924374
 31
0
  0
LINE
  8
1
 62
3
 10
-6.056395188407072
 20
495.5329734793499
 30
0
 11
-3.449658723015913
 21
494.0279734793499
 31
0
  0
LINE
  8
1
 62
3
 10
-3.449658723015913
 20
494.0279734793499
 30
0
 11
-5.968454625964563
 21
489.6652910015465
 31
0
  0
LINE
  8
1
 62
3
 10
-5.968454625964563
 20
489.6652910015465
 30
0
 11
-8.575191091355723
 21
491.1702910015465
 31
0
  0
LINE
  8
1
 62
3
 10
-8.575191091355723
 20
491.1702910015465
 30
0
 11
-6.056395188407072
 21
495.5329734793499
 31
0
  0
ARC
  8
1
 62
2
 10
10.45182265909791
 20
489.735487280779
 30
0
 40
1.000000000000527
 50
241.3483359921655
 51
0
  0
ARC
  8
1
 62
2
 10
10.45182265909791
 20
489.735487280779
 30
0
 40
1
 50
0
 51
180
  0
ARC
  8
1
 62
2
  6
DASHDOT
 10
10.45182265909791
 20
481.235487280779
 30
0
 40
8.5
 50
0
 51
180
  0
ARC
  8
1
 62
2
 10
10.45182265909791
 20
489.735487280779
 30
0
 40
0.9999999999999893
 50
180
 51
200.4956497706003
  0
ARC
  8
1
 62
2
 10
10.45182265909791
 20
472.735487280779
 30
0
 40
1.000000000000527
 50
241.3483359921655
 51
200.4956497706003
  0
ARC
  8
1
 62
2
 10
3.09060672693052
 20
476.985487280779
 30
0
 40
0.9999999999989584
 50
1.348335992202168
 51
320.4956497705961
  0
ARC
  8
1
 62
2
 10
17.81303859126532
 20
476.985487280779
 30
0
 40
1.000000000000022
 50
121.348335992197
 51
80.49564977059218
  0
ARC
  8
1
 62
2
  6
DASHDOT
 10
10.45182265909791
 20
481.235487280779
 30
0
 40
8.499999999999989
 50
180
 51
0
  0
CIRCLE
  8
1
 62
7
 10
10.45182265909791
 20
481.235487280779
 30
0
 40
13.00000000000047
  0
CIRCLE
  8
1
 62
7
 10
10.45182265909791
 20
481.235487280779
 30
0
 40
12.20000000000072
  0
CIRCLE
  8
1
 62
7
 10
10.45182265909791
 20
481.235487280779
 30
0
 40
4.999999999999544
  0
CIRCLE
  8
1
 62
7
 10
3.09060672693052
 20
476.985487280779
 30
0
 40
0.6500000000014508
  0
CIRCLE
  8
1
 62
7
 10
17.81303859126532
 20
476.985487280779
 30
0
 40
0.650000000000555
  0
CIRCLE
  8
1
 62
7
 10
10.45182265909791
 20
489.735487280779
 30
0
 40
0.6499999999996464
  0
CIRCLE
  8
1
 62
7
 10
10.45182265909791
 20
472.735487280779
 30
0
 40
0.6499999999996464
  0
CIRCLE
  8
1
 62
7
 10
10.45182265909791
 20
481.235487280779
 30
0
 40
3.000000000000185
  0
CIRCLE
  8
1
 62
7
 10
10.45182265909791
 20
481.235487280779
 30
0
 40
1.499999999999433
  0
CIRCLE
  8
1
 62
3
 10
16.73541179798198
 20
504.2679209004344
 30
0
 40
0.875
  0
POLYLINE
  8
1
 62
2
 66
1
  0
VERTEX
  8
1
 10
55.16174070160744
 20
463.140914082674
 30
0
 42
-0.07456166393772559
  0
VERTEX
  8
1
 10
55.26301489162817
 20
463.2168452462959
 30
0
 42
-0.08517339809952702
  0
VERTEX
  8
1
 10
55.3675595241804
 20
463.2496493177753
 30
0
 42
-0.07403021085751949
  0
VERTEX
  8
1
 10
55.47441889265529
 20
463.2469715928045
 30
0
 42
-0.0515898405926274
  0
VERTEX
  8
1
 10
55.58263729044401
 20
463.2164573670753
 30
0
 42
-0.0314223041662719
  0
VERTEX
  8
1
 10
55.69125901093775
 20
463.1657519362797
 30
0
 42
-0.01617993610876482
  0
VERTEX
  8
1
 10
55.79932834752767
 20
463.1025005961096
 30
0
 42
-0.003901146393262159
  0
VERTEX
  8
1
 10
55.90588959360496
 20
463.034348642257
 30
0
 42
0.008027191502193148
  0
VERTEX
  8
1
 10
56.00998704256079
 20
462.968941370414
 30
0
 42
0.02259048926817528
  0
VERTEX
  8
1
 10
56.11066498778632
 20
462.9139240762723
 30
0
 42
0.04384743047133886
  0
VERTEX
  8
1
 10
56.20696772267276
 20
462.8769420555243
 30
0
 42
0.07558311896730009
  0
VERTEX
  8
1
 10
56.29793954061123
 20
462.8656406038613
 30
0
 42
0.1074048402322022
  0
VERTEX
  8
1
 10
56.38262473499297
 20
462.8876650169761
 30
0
 42
0.1041304844440215
  0
VERTEX
  8
1
 10
56.4600675992091
 20
462.95066059056
 30
0
  0
VERTEX
  8
1
 10
56.49577449918981
 20
462.9999117174316
 30
0
  0
SEQEND
  8
1
  0
POLYLINE
  8
1
 62
2
 66
1
  0
VERTEX
  8
1
 10
6.82182265931964
 20
459.635314728951
 30
0
 42
-0.05015306746220867
  0
VERTEX
  8
1
 10
7.386965359509506
 20
460.1816849596567
 30
0
 42
-0.07164713478733889
  0
VERTEX
  8
1
 10
7.917252436283108
 20
460.4776941725533
 30
0
 42
-0.08625832157750236
  0
VERTEX
  8
1
 10
8.417463894738489
 20
460.5643079241645
 30
0
 42
-0.07736720993230838
  0
VERTEX
  8
1
 10
8.892379739973693
 20
460.482491771014
 30
0
 42
-0.05297395127593756
  0
VERTEX
  8
1
 10
9.34677997708676
 20
460.2732112696253
 30
0
 42
-0.02973119389457751
  0
VERTEX
  8
1
 10
9.785444611175731
 20
459.9774319765219
 30
0
 42
-0.01143193889428519
  0
VERTEX
  8
1
 10
10.21315364733865
 20
459.6361194482275
 30
0
 42
0.00451297073430783
  0
VERTEX
  8
1
 10
10.63468709067356
 20
459.2902392412657
 30
0
 42
0.0218696301299208
  0
VERTEX
  8
1
 10
11.0548249462785
 20
458.9807569121603
 30
0
 42
0.04480252011053967
  0
VERTEX
  8
1
 10
11.47834721925151
 20
458.7486380174345
 30
0
 42
0.07524953080835857
  0
VERTEX
  8
1
 10
11.91003391469065
 20
458.6348481136124
 30
0
 42
0.1002092766887945
  0
VERTEX
  8
1
 10
12.35466503769394
 20
458.6803527572171
 30
0
 42
0.09331849547640488
  0
VERTEX
  8
1
 10
12.81702059335943
 20
458.9261175047724
 30
0
 42
0.06536774086042556
  0
VERTEX
  8
1
 10
13.30188058678517
 20
459.4131079128019
 30
0
 42
0.04166920036819279
  0
VERTEX
  8
1
 10
13.81402502306919
 20
460.1822895378294
 30
0
  0
VERTEX
  8
1
 10
14.0818226588762
 20
460.685503793131
 30
0
  0
SEQEND
  8
1
  0
POLYLINE
  8
1
 62
2
 66
1
  0
VERTEX
  8
1
 10
6.826822659095821
 20
458.3111706024316
 30
0
 42
-0.05029105788251444
  0
VERTEX
  8
1
 10
7.391344706020978
 20
458.8549957076911
 30
0
 42
-0.07177493300042338
  0
VERTEX
  8
1
 10
7.921087867756464
 20
459.1490640478134
 30
0
 42
-0.08624252667238455
  0
VERTEX
  8
1
 10
8.420824232787027
 20
459.2342733324343
 30
0
 42
-0.07719118306715869
  0
VERTEX
  8
1
 10
8.895325889597411
 20
459.1515212711898
 30
0
 42
-0.05278951865926487
  0
VERTEX
  8
1
 10
9.349364926672363
 20
458.9417055737156
 30
0
 42
-0.02960102501287619
  0
VERTEX
  8
1
 10
9.787713432496624
 20
458.6457239496476
 30
0
 42
-0.0113434489076378
  0
VERTEX
  8
1
 10
10.21514349555494
 20
458.3044741086217
 30
0
 42
0.004581074816354729
  0
VERTEX
  8
1
 10
10.63642720433206
 20
457.9588537602733
 30
0
 42
0.02193283389619962
  0
VERTEX
  8
1
 10
11.05633664731273
 20
457.6497606142387
 30
0
 42
0.04486758531613053
  0
VERTEX
  8
1
 10
11.47964391298168
 20
457.4180923801533
 30
0
 42
0.0752973059455218
  0
VERTEX
  8
1
 10
11.91112108982368
 20
457.3047467676533
 30
0
 42
0.1001801060842769
  0
VERTEX
  8
1
 10
12.35554026632346
 20
457.3506214863743
 30
0
 42
0.09322685904489884
  0
VERTEX
  8
1
 10
12.81767353096576
 20
457.5966142459523
 30
0
 42
0.06529828961510929
  0
VERTEX
  8
1
 10
13.30229297223533
 20
458.0836227560228
 30
0
 42
0.0416341606355295
  0
VERTEX
  8
1
 10
13.81417067861692
 20
458.8525447262221
 30
0
  0
VERTEX
  8
1
 10
14.0818226588762
 20
459.355503793131
 30
0
  0
SEQEND
  8
1
  0
LINE
  8
1
 62
2
 10
104.3347221962898
 20
477.7354872807787
 30
0
 11
104.3347221962898
 21
481.2354872807787
 31
0
  0
SOLID
  8
1
 62
2
 10
105.5717289258979
 20
481.2354872807787
 30
0
 11
103.0977154666818
 21
481.2354872807787
 31
0
 12
104.3347221962898
 22
479.4854872807787
 32
0
 13
104.3347221962898
 23
479.4854872807787
 33
0
  0
TEXT
  8
1
 62
3
 10
26.60541179798198
 20
503.3929209004344
 30
0
 40
1.75
  1
A
 41
0.72
 72
1
 73
2
 11
27.23541179798198
 21
504.2679209004344
 31
0
  0
TEXT
  8
1
 62
3
 10
20.09541179798198
 20
503.3929209004344
 30
0
 40
1.75
  1
0,2
 41
0.72
 72
1
 73
2
 11
21.98541179798198
 21
504.2679209004344
 31
0
  0
TEXT
  8
1
 62
3
 10
103.7047221962898
 20
475.1104872807787
 30
0
 40
1.75
  1
A
 41
0.72
 72
1
 73
2
 11
104.3347221962898
 21
475.9854872807787
 31
0
  0
TEXT
  8
1
 62
3
 10
21.30729759452937
 20
457.9695116684471
 30
0
 40
1.5
  1
1. Brown
 41
0.72
  0
TEXT
  8
1
 62
3
 10
21.30729759452937
 20
455.3445116684471
 30
0
 40
1.5
  1
2. Red
 41
0.72
  0
TEXT
  8
1
 62
3
 10
21.30729759452937
 20
452.7195116684471
 30
0
 40
1.5
  1
3. Orange
 41
0.72
  0
TEXT
  8
1
 62
3
 10
21.30729759452937
 20
450.0945116684471
 30
0
 40
1.5
  1
4. Yellow
 41
0.72
  0
TEXT
  8
1
 62
3
 10
21.30729759452937
 20
447.4695116684471
 30
0
 40
1.5
  1
5. Green
 41
0.72
  0
TEXT
  8
1
 62
3
 10
21.30729759452937
 20
444.8445116684471
 30
0
 40
1.5
  1
6. Blue
 41
0.72
  0
TEXT
  8
1
 62
3
 10
14.48190889947424
 20
444.2368663520686
 30
0
 40
1.75
  1
1
 41
0.72
 72
1
 73
3
 11
15.11190889947424
 21
445.9868663520686
 31
0
  0
TEXT
  8
1
 62
3
 10
12.86311665768928
 20
444.2388075575055
 30
0
 40
1.75
  1
2
 41
0.72
 72
1
 73
3
 11
13.49311665768928
 21
445.9888075575055
 31
0
  0
TEXT
  8
1
 62
3
 10
11.06509683421724
 20
444.2406325911726
 30
0
 40
1.75
  1
3
 41
0.72
 72
1
 73
3
 11
11.69509683421724
 21
445.9906325911726
 31
0
  0
TEXT
  8
1
 62
3
 10
8.44015367880022
 20
444.2276133257766
 30
0
 40
1.75
  1
4
 41
0.72
 72
1
 73
3
 11
9.070153678800221
 21
445.9776133257766
 31
0
  0
TEXT
  8
1
 62
3
 10
6.56984417223662
 20
444.2318767519615
 30
0
 40
1.75
  1
5
 41
0.72
 72
1
 73
3
 11
7.19984417223662
 21
445.9818767519615
 31
0
  0
TEXT
  8
1
 62
3
 10
5.066176295190981
 20
444.2351320195575
 30
0
 40
1.75
  1
6
 41
0.72
 72
1
 73
3
 11
5.696176295190981
 21
445.9851320195575
 31
0
  0
DIMENSION
  8
1
  6
CONTINUOUS
 62
2
  2
*D0
  3
DMST_1
 10
2.487322036294319
 20
468.2354872807786
 30
0
 11
0.6123220362943194
 21
459.431675719913
 31
0
 12
0
 22
0
 32
0
 70
0
  1
210
 13
7.663679284053899
 23
448.0349488696655
 33
0
 14
10.45182265909791
 24
468.2354872807786
 34
0
 50
90
 53
0
  0
DIMENSION
  8
1
  6
CONTINUOUS
 62
2
  2
*D1
  3
DMST_2
 10
58.41009906029468
 20
459.591237204734
 30
0
 11
60.92855653654336
 21
461.553737204734
 31
0
 12
0
 22
0
 32
0
 70
0
 13
55.10554655919807
 23
468.2354872807787
 33
0
 14
58.41009906029468
 24
468.2354872807787
 34
0
 53
0
  0
DIMENSION
  8
1
  6
CONTINUOUS
 62
2
  2
*D2
  3
DMST_1
 10
87.40554655916547
 20
453.5006017029331
 30
0
 11
71.28986740780746
 21
455.4631017029331
 31
0
 12
0
 22
0
 32
0
 70
0
 13
55.10554655919807
 23
468.2354872807787
 33
0
 14
87.40554655916546
 24
469.035487280767
 34
0
 53
0
  0
DIMENSION
  8
1
  6
CONTINUOUS
 62
2
  2
*D3
  3
DMST_1
 10
99.9055465591655
 20
464.810710948576
 30
0
 11
95.07282189066578
 21
466.685710948576
 31
0
 12
0
 22
0
 32
0
 70
0
 13
89.90554655916546
 23
478.2354872807787
 33
0
 14
99.90554655916546
 24
479.8167172048369
 34
0
 53
0
  0
DIMENSION
  8
1
  6
CONTINUOUS
 62
2
  2
*D4
  3
DMST_3
 10
9.451822659097912
 20
504.2726976134534
 30
0
 11
10.01637272478622
 21
506.2351976134534
 31
0
 12
0
 22
0
 32
0
 70
0
  1
M<>
 13
11.45182265909791
 23
489.735487280779
 33
0
 14
9.451822659097921
 24
489.735487280779
 34
0
 53
0
  0
DIMENSION
  8
1
  6
CONTINUOUS
 62
2
  2
*D5
  3
DMST_1
 10
87.40554655916547
 20
459.89046479012
 30
0
 11
82.30179307385447
 21
461.85296479012
 31
0
 12
0
 22
0
 32
0
 70
0
 13
88.90554655916546
 23
476.2354872807787
 33
0
 14
87.40554655916546
 24
469.035487280767
 34
0
 53
0
  0
DIMENSION
  8
1
  6
CONTINUOUS
 62
2
  2
*D6
  3
DMST_1
 10
99.90554655916549
 20
453.5006017029331
 30
0
 11
94.82497355035048
 21
455.4631017029331
 31
0
 12
0
 22
0
 32
0
 70
0
 13
87.40554655916546
 23
469.035487280767
 33
0
 14
99.90554655916546
 24
479.8167172048369
 34
0
 53
0
  0
DIMENSION
  8
1
  6
CONTINUOUS
 62
2
  2
*D12
  3
DMST_2
 10
10.45182265909791
 20
495.0707210061572
 30
0
 11
-6.62234662390715
 21
491.255184039622
 31
0
 12
0
 22
0
 32
0
 70
2
  1
3x<>
 13
10.45182265909791
 23
481.235487280779
 33
0
 14
1.497081553807981
 24
476.0654650931163
 34
0
 15
10.45182265909791
 25
467.1260459255462
 35
0
 16
-5.069092738860547
 26
490.1964919638596
 36
0
 53
0
  0
INSERT
  8
0
  2
ARBRE_DE_SORTIE__1
 10
1.424687559253471
 20
190.539827307549
 30
0
  0
INSERT
  8
1
  2
*D7
 10
0
 20
0
 30
0
  0
INSERT
  8
1
  2
*D8
 10
0
 20
0
 30
0
  0
INSERT
  8
1
  2
*D9
 10
0
 20
0
 30
0
  0
INSERT
  8
1
  2
*D10
 10
0
 20
0
 30
0
  0
INSERT
  8
1
  2
*D11
 10
0
 20
0
 30
0
  0
ENDBLK
  8
0
  0
ENDSEC
  0
SECTION
  2
ENTITIES
  0
INSERT
  8
0
  2
ARBRE_DE_SORTIE__2_TOP_
 10
0
 20
0
 30
0
 41
2
 42
2
 43
2
  0
ENDSEC
  0
EOF
